#TITLE:Delirium;
#SUBTITLE:;
#ARTIST:?;
#TITLETRANSLIT:;
#SUBTITLETRANSLIT:;
#ARTISTTRANSLIT:Smiley;
#CREDIT:;
#BANNER:Delirium_logo.jpg;
#BACKGROUND:Delirium_Bg.jpg;
#LYRICSPATH:;
#CDTITLE:Lan.png;
#MUSIC:Delirium.mp3;
#OFFSET:-0.040;
#SAMPLESTART:100.000;
#SAMPLELENGTH:12.000;
#SELECTABLE:YES;
#BPMS:0.000=163.000;
#STOPS:;
#BGCHANGES:;
// cache tags:
#FIRSTBEAT:8.000;
#LASTBEAT:334.000;
#SONGFILENAME:Songs/lan sky/Delirium/Delirium.sm;
#HASMUSIC:1;
#HASBANNER:1;
#MUSICLENGTH:124.516;
// end cache tags

//---------------dance-single - sky----------------
#NOTES:
     dance-single:
     sky:
     Hard:
     10:
     1.000,1.000,1.000,0.040,0.964,802.000,238.000,5.000,0.000,16.000:

0000
0000
0000
0000
,
0000
0000
0000
0000
,
0001
0010
0100
1000
0010
0100
1000
0100
1000
0100
0010
0001
0100
0010
0001
0010
,
0001
0010
0100
1000
0100
0010
0001
0010
0001
0010
0100
1000
0100
0010
0001
0010
,
1000
0100
0010
0001
0100
0010
0001
0010
1000
0100
0010
0001
0100
0010
0001
0010
,
1000
0100
0010
0001
0010
0100
1000
0100
1000
0100
0010
0001
0010
0100
1000
0100
,
0001
0100
0010
1000
0100
0001
0011
0110
,
1100
0000
0001
0000
0010
0000
1000
0000
0100
0000
0001
0100
1000
0000
0001
0010
,
1100
0000
1000
0100
0011
0000
0001
0010
1100
0000
0100
0010
1001
0000
0010
0100
,
1010
0000
1000
0010
0101
0000
0100
0010
1001
0000
1000
0101
1010
0000
0011
1100
,
0011
1000
0100
0010
0100
0010
0001
1000
0010
0001
1000
0100
0001
1000
0010
0001
,
1100
0000
0000
0000
0110
0000
0000
0000
0011
0000
0000
1100
0010
0000
1001
0000
,
1000
0001
0010
0100
0010
0100
1000
0001
0100
1000
0001
0010
1000
0001
0010
0100
,
0011
0000
0000
0000
0110
0000
0000
0000
1100
0000
0000
0011
0100
0000
1001
0000
,
0100
0010
1000
0001
1000
0100
0010
0001
0001
0010
0100
1000
1000
0100
0010
0001
,
1010
0000
0000
0000
0110
0000
0000
0000
0101
0000
0000
0110
1000
0000
0011
0000
,
0010
0100
0001
1000
0001
0010
0100
1000
1000
0100
0010
0001
0001
0010
0100
1000
,
0101
0000
0000
0000
0110
0000
0000
0000
1010
0000
0000
1001
0100
0000
0011
0000
,
1000
0100
0001
0010
0100
0001
1100
0110
,
0011
0000
0100
0000
0010
0000
0001
0000
1000
0000
0100
0001
0010
0000
1000
0010
,
0001
0010
1000
0100
0010
0000
1000
0001
0100
0010
1000
0001
0100
0000
0001
0100
,
0010
1000
0001
0100
0010
0000
0001
0010
1000
0000
1100
0011
1100
0000
0110
1001
,
0110
0001
1010
0001
1010
0001
1010
1011
,
1110
0110
1010
0110
1010
0010
1010
1010
,
1010
0001
1010
0001
1010
0001
1010
1011
,
1010
0010
1010
0010
1010
0100
1010
0100
,
0101
1000
0101
1000
0101
1000
0101
1101
,
0101
0010
0101
0010
0101
0100
0101
0100
,
0101
1000
0101
1000
0101
1000
0101
1101
,
0101
0000
0100
0000
0101
0000
0100
0000
0001
0100
1000
0010
0001
0100
1000
0010
,
1101
1000
0011
0100
0011
1000
0011
0101
,
1001
0000
0000
0000
0101
0000
0000
0000
0011
0000
0000
0100
1001
0000
0100
0000
,
0101
0010
0101
1000
0101
0010
0001
1001
,
0101
0000
0000
0000
0011
0000
0000
0000
1001
0000
0000
0010
1001
0000
0100
0000
,
1100
0010
1100
0001
1100
0010
1000
1001
,
1100
0000
0000
0000
1001
0000
0000
0000
1010
0000
0000
0010
1001
0000
0100
0000
,
1010
0100
1010
0001
1010
0100
1000
1001
,
1010
0000
0000
0000
1001
0000
0000
0000
1000
0100
0001
0010
1000
0100
0001
0010
,
1101
0000
0000
0001
0010
0000
1100
0000
0011
0000
0000
1000
0100
0000
0011
0000
,
0110
0000
0000
0001
0100
0000
0101
0000
1010
0000
0000
1000
0001
0000
1100
0000
,
0101
0000
0000
0010
0100
0000
1001
0000
0110
0000
0000
1000
0010
0000
0110
0000
,
0011
0000
0000
0001
0100
0000
0011
0000
1010
0000
0000
1000
0001
0000
1100
0000
,
1000
0100
0000
0000
0100
0010
0000
0000
0010
0001
0000
0000
0100
0000
0001
0010
,
0100
1000
0000
0001
0000
0010
1000
0000
0001
0000
1000
0100
0001
1000
0010
0001
,
1000
0100
0001
0000
1000
0000
0001
0100
0000
1000
0010
0000
1000
0100
0010
0001
,
1000
0000
0100
0010
0000
0000
1000
0100
0000
0000
0001
0010
0000
0000
0000
0000
,
1000
0100
1000
0100
1000
0010
1000
0010
0100
0010
0100
0010
1000
0001
1000
0001
,
1000
0100
1000
0100
0001
0010
0001
0010
0100
0001
0100
0001
0010
1000
0010
1000
,
0100
0010
0100
0010
0001
1000
0001
1000
0010
0001
0010
0001
0100
1000
0100
1000
,
0001
1000
0001
1000
0100
0010
0100
0010
1000
0010
1000
0010
1000
0100
1000
0100
,
0001
0100
0001
0100
1000
0010
1000
0010
0100
0010
0100
0010
1000
0001
1000
0001
,
1000
0100
1000
0100
0001
0010
0001
0010
0100
0001
0100
0001
0010
1000
0010
1000
,
0100
0010
0100
0010
0001
1000
0001
1000
0010
0001
0010
0001
0100
1000
0100
1000
,
0001
1000
0001
1000
0100
0010
0100
0010
1000
0010
1000
0010
0001
0100
0001
0100
,
1111
0000
0000
1100
0011
0000
0000
0110
,
1001
0000
0000
1010
0101
0000
0000
0000
,
0011
1100
1001
1010
0101
0110
1100
0011
,
1201
0000
1312
0000
,
0113
0001
0110
1000
0110
0001
0110
1110
,
0110
0010
0110
0010
0110
1000
0110
1000
,
0110
0001
0110
1000
0110
0001
0110
1110
,
0110
1000
0110
1000
0110
0010
0110
0010
,
0011
1000
0011
0100
0011
1000
0011
0111
,
0011
0100
0011
0100
0011
0001
0011
0001
,
0011
1000
0011
0100
0011
1000
0011
0111
,
0011
0000
0001
0000
0011
0000
0001
0000
0011
0000
0000
1100
0011
0000
1100
0011
,
1100
0001
0010
0100
1000
0010
0001
0100
1000
0100
0010
0001
1000
0010
0001
1000
,
0011
0000
0000
0000
0110
0000
0000
0000
1100
0000
0000
1010
0100
0000
0011
0000
,
1000
0100
0010
0001
0100
0001
0010
1000
0001
0010
0100
1000
0010
0001
0100
0010
,
1100
0000
0000
0000
0110
0000
0000
0000
0011
0000
0000
0101
0010
0000
1100
0000
,
0001
0010
0100
1000
0010
1000
0100
0001
1000
0100
0010
0001
0100
1000
0001
0010
,
1001
0000
0000
0000
0110
0000
0000
0000
1010
0000
0000
1001
0100
0000
0011
0000
,
1000
0100
0010
0001
0100
1000
0001
0010
0001
0010
0100
1000
0001
0010
1000
0100
,
1001
0000
0000
0000
0110
0000
0000
0000
0010
0001
0100
1000
0010
0001
0100
1000
,
0011
0100
1010
0001
0110
1000
0011
0110
,
1100
0000
0000
0000
0011
0000
0000
0000
0110
0000
0000
0011
1000
0000
0100
0000
,
1010
0100
1001
0100
0011
0100
1001
0110
,
0011
0000
0000
0000
1010
0000
0000
0000
0101
0000
0000
1100
0010
0000
1001
0000
,
0110
1000
0101
0010
1001
0100
1100
0110
,
0011
0000
0000
0000
1010
0000
0000
0000
0110
0000
0000
0101
1000
0000
0011
0000
,
1010
0100
1001
0010
1100
0001
0110
0011
,
1100
0000
0000
0000
0011
0000
0000
0000
0010
1000
0100
0001
0010
1000
0100
0001
,
2220
0000
0000
0000
,
0000
0000
3330
0000
;
